PDA

View Full Version : problems mounting cue image



meltsheep
30.07.2006, 08:51
I keep getting this error: No starting INDEX was defined for the previous track

Here's the cue sheet. Further below is a cue sheet that does work. I can't figure out the differences :-(

------- this one doesn't mount -----------------------------

REM GENRE Classical
REM DATE 1990
REM DISCID 0A0E8412
REM COMMENT "ExactAudioCopy v0.95b3"
CATALOG 0028942766822
PERFORMER "Simon Preston, organ"
TITLE "Bach Organ Works"
FILE "01 - Toccata and Fugue in D minor, BWV 565 - Toccata, Adagio.wav" WAVE
TRACK 01 AUDIO
TITLE "Toccata and Fugue in D minor, BWV 565 - Toccata, Adagio"
PERFORMER "Simon Preston, organ"
ISRC DEF058803210
PREGAP 00:00:33
INDEX 01 00:00:00
FILE "02 - Toccata and Fugue in D minor, BWV 565 - Fugue.wav" WAVE
TRACK 02 AUDIO
TITLE "Toccata and Fugue in D minor, BWV 565 - Fugue"
PERFORMER "Simon Preston, organ"
ISRC DEF058803210
INDEX 01 00:00:00
TRACK 03 AUDIO
TITLE "Fantasia in G major, BWV 572 ('Pièce d'orgue') - Très vitement"
PERFORMER "Simon Preston, organ"
ISRC DEF058803220
INDEX 00 05:54:15
FILE "03 - Fantasia in G major, BWV 572 ('Pièce d'orgue') - Très vitement.wav" WAVE
INDEX 01 00:00:00
FILE "04 - Fantasia in G major, BWV 572 ('Pièce d'orgue') - Gravement.wav" WAVE
TRACK 04 AUDIO
TITLE "Fantasia in G major, BWV 572 ('Pièce d'orgue') - Gravement"
PERFORMER "Simon Preston, organ"
ISRC DEF058803220
INDEX 01 00:00:00
FILE "05 - Fantasia in G major, BWV 572 ('Pièce d'orgue') - Lentement.wav" WAVE
TRACK 05 AUDIO
TITLE "Fantasia in G major, BWV 572 ('Pièce d'orgue') - Lentement"
PERFORMER "Simon Preston, organ"
ISRC DEF058803220
INDEX 01 00:00:00
TRACK 06 AUDIO
TITLE "Canonic Variations on the Christmas Hymn 'Vom Himmel hoch, da komm' ich her',..."
PERFORMER "Simon Preston, organ"
ISRC DEF058803230
INDEX 00 01:28:48
FILE "06 - Canonic Variations on the Christmas Hymn 'Vom Himmel hoch, da komm' ich her', BWV 769 - Variatio 1 - Nel canone all'ottava.wav" WAVE
INDEX 01 00:00:00
FILE "07 - Canonic Variations on the Christmas Hymn 'Vom Himmel hoch, da komm' ich her', BWV 769 - Variatio 2 - Alio modo, nel canone alla quinta.wav" WAVE
TRACK 07 AUDIO
TITLE "Canonic Variations on the Christmas Hymn 'Vom Himmel hoch, da komm' ich her',..."
PERFORMER "Simon Preston, organ"
ISRC DEF058803230
INDEX 01 00:00:00
TRACK 08 AUDIO
TITLE "Canonic Variations on the Christmas Hymn 'Vom Himmel hoch, da komm' ich her',..."
PERFORMER "Simon Preston, organ"
ISRC DEF058803230
INDEX 00 01:29:28
FILE "08 - Canonic Variations on the Christmas Hymn 'Vom Himmel hoch, da komm' ich her', BWV 769 - Variatio 3 - Canone all settima.wav" WAVE
INDEX 01 00:00:00
FILE "09 - Canonic Variations on the Christmas Hymn 'Vom Himmel hoch, da komm' ich her', BWV 769 - Variatio 4 - Per augmentationem, nel canone all'pttava.wav" WAVE
TRACK 09 AUDIO
TITLE "Canonic Variations on the Christmas Hymn 'Vom Himmel hoch, da komm' ich her',..."
PERFORMER "Simon Preston, organ"
ISRC DEF058803230
INDEX 01 00:00:00
FILE "10 - Canonic Variations on the Christmas Hymn 'Vom Himmel hoch, da komm' ich her', BWV 769 - Variatio 5 - L'altra sorte, del canone al rovescio.wav" WAVE
TRACK 10 AUDIO
TITLE "Canonic Variations on the Christmas Hymn 'Vom Himmel hoch, da komm' ich her',..."
PERFORMER "Simon Preston, organ"
ISRC DEF058803230
INDEX 01 00:00:00
TRACK 11 AUDIO
TITLE "Prelude and Fugue in D major, BWV 532 - Prelude"
PERFORMER "Simon Preston, organ"
ISRC DEF058803240
INDEX 00 03:03:53
FILE "11 - Prelude and Fugue in D major, BWV 532 - Prelude.wav" WAVE
INDEX 01 00:00:00
TRACK 12 AUDIO
TITLE "Prelude and Fugue in D major, BWV 532 - Fuge"
PERFORMER "Simon Preston, organ"
ISRC DEF058803240
INDEX 00 04:22:20
FILE "12 - Prelude and Fugue in D major, BWV 532 - Fuge.wav" WAVE
INDEX 01 00:00:00
TRACK 13 AUDIO
TITLE "Pastorale in F major, BWV 590 ('Pastorella') - No.1 in F major"
PERFORMER "Simon Preston, organ"
ISRC DEF058803250
INDEX 00 04:58:30
FILE "13 - Pastorale in F major, BWV 590 ('Pastorella') - No.1 in F major.wav" WAVE
INDEX 01 00:00:00
FILE "14 - Pastorale in F major, BWV 590 ('Pastorella') - No.2 in C major.wav" WAVE
TRACK 14 AUDIO
TITLE "Pastorale in F major, BWV 590 ('Pastorella') - No.2 in C major"
PERFORMER "Simon Preston, organ"
ISRC DEF058803250
INDEX 01 00:00:00
TRACK 15 AUDIO
TITLE "Pastorale in F major, BWV 590 ('Pastorella') - No.3 in C minor"
PERFORMER "Simon Preston, organ"
ISRC DEF058803250
INDEX 00 02:20:55
FILE "15 - Pastorale in F major, BWV 590 ('Pastorella') - No.3 in C minor.wav" WAVE
INDEX 01 00:00:00
TRACK 16 AUDIO
TITLE "Pastorale in F major, BWV 590 ('Pastorella') - No.4 in F major"
PERFORMER "Simon Preston, organ"
ISRC DEF058803250
INDEX 00 02:23:60
FILE "16 - Pastorale in F major, BWV 590 ('Pastorella') - No.4 in F major.wav" WAVE
INDEX 01 00:00:00
TRACK 17 AUDIO
TITLE "Prelude and Fugue in E flat major, BWV 552 ('St. Anne') - Preludium pro organ..."
PERFORMER "Simon Preston, organ"
ISRC DEF058803260
INDEX 00 03:51:12
FILE "17 - Prelude and Fugue in E flat major, BWV 552 ('St. Anne') - Preludium pro organo pleno.wav" WAVE
INDEX 01 00:00:00
FILE "18 - Prelude and Fugue in E flat major, BWV 552 ('St. Anne') - Fuga a 5 con pedale pro organo pleno.wav" WAVE
TRACK 18 AUDIO
TITLE "Prelude and Fugue in E flat major, BWV 552 ('St. Anne') - Fuga a 5 con pedale..."
PERFORMER "Simon Preston, organ"
ISRC DEF058803260
INDEX 01 00:00:00

--------------------- this one mounts ok ------------------
REM GENRE Classical
REM DATE 1998
REM DISCID 4210F418
REM COMMENT "ExactAudioCopy v0.95b3"
PERFORMER "Koroliov, Evgeni"
TITLE "Bach, J.S., WTC Book II (Disk 1)"
FILE "301 - Prelude in C major, BWV870.wav" WAVE
TRACK 01 AUDIO
TITLE "Prelude in C major, BWV870"
PERFORMER "Koroliov, Evgeni"
INDEX 01 00:00:00
FILE "302 - Fugue a 3 in C major, BWV870.wav" WAVE
TRACK 02 AUDIO
TITLE "Fugue a 3 in C major, BWV870"
PERFORMER "Koroliov, Evgeni"
INDEX 01 00:00:00
FILE "303 - Prelude in C minor, BWV871.wav" WAVE
TRACK 03 AUDIO
TITLE "Prelude in C minor, BWV871"
PERFORMER "Koroliov, Evgeni"
INDEX 01 00:00:00
FILE "304 - Fugue a 4 in C minor, BWV871.wav" WAVE
TRACK 04 AUDIO
TITLE "Fugue a 4 in C minor, BWV871"
PERFORMER "Koroliov, Evgeni"
INDEX 01 00:00:00
FILE "305 - Prelude in C-sharp major, BWV872.wav" WAVE
TRACK 05 AUDIO
TITLE "Prelude in C-sharp major, BWV872"
PERFORMER "Koroliov, Evgeni"
INDEX 01 00:00:00
FILE "306 - Fugue a 3 in C-sharp major, BWV872.wav" WAVE
TRACK 06 AUDIO
TITLE "Fugue a 3 in C-sharp major, BWV872"
PERFORMER "Koroliov, Evgeni"
INDEX 01 00:00:00
FILE "307 - Prelude in C-sharp minor, BWV873.wav" WAVE
TRACK 07 AUDIO
TITLE "Prelude in C-sharp minor, BWV873"
PERFORMER "Koroliov, Evgeni"
INDEX 01 00:00:00
FILE "308 - Fugue a 3 in C-sharp minor, BWV873.wav" WAVE
TRACK 08 AUDIO
TITLE "Fugue a 3 in C-sharp minor, BWV873"
PERFORMER "Koroliov, Evgeni"
INDEX 01 00:00:00
FILE "309 - Prelude in D major, BWV874.wav" WAVE
TRACK 09 AUDIO
TITLE "Prelude in D major, BWV874"
PERFORMER "Koroliov, Evgeni"
INDEX 01 00:00:00
FILE "310 - Fugue a 4 in D major, BWV874.wav" WAVE
TRACK 10 AUDIO
TITLE "Fugue a 4 in D major, BWV874"
PERFORMER "Koroliov, Evgeni"
INDEX 01 00:00:00
FILE "311 - Prelude in D minor, BWV875.wav" WAVE
TRACK 11 AUDIO
TITLE "Prelude in D minor, BWV875"
PERFORMER "Koroliov, Evgeni"
INDEX 01 00:00:00
FILE "312 - Fugue a 3 in D minor, BWV875.wav" WAVE
TRACK 12 AUDIO
TITLE "Fugue a 3 in D minor, BWV875"
PERFORMER "Koroliov, Evgeni"
INDEX 01 00:00:00
FILE "313 - Prelude in E-flat major, BWV876.wav" WAVE
TRACK 13 AUDIO
TITLE "Prelude in E-flat major, BWV876"
PERFORMER "Koroliov, Evgeni"
INDEX 01 00:00:00
FILE "314 - Fugue a 4 in E-flat major, BWV876.wav" WAVE
TRACK 14 AUDIO
TITLE "Fugue a 4 in E-flat major, BWV876"
PERFORMER "Koroliov, Evgeni"
INDEX 01 00:00:00
FILE "315 - Prelude in D-sharp minor, BWV877.wav" WAVE
TRACK 15 AUDIO
TITLE "Prelude in D-sharp minor, BWV877"
PERFORMER "Koroliov, Evgeni"
INDEX 01 00:00:00
FILE "316 - Fugue a 4 in D-sharp minor, BWV877.wav" WAVE
TRACK 16 AUDIO
TITLE "Fugue a 4 in D-sharp minor, BWV877"
PERFORMER "Koroliov, Evgeni"
INDEX 01 00:00:00
FILE "317 - Prelude in E major, BWV878.wav" WAVE
TRACK 17 AUDIO
TITLE "Prelude in E major, BWV878"
PERFORMER "Koroliov, Evgeni"
INDEX 01 00:00:00
FILE "318 - Fugue a 4 in E major, BWV878.wav" WAVE
TRACK 18 AUDIO
TITLE "Fugue a 4 in E major, BWV878"
PERFORMER "Koroliov, Evgeni"
INDEX 01 00:00:00
FILE "319 - Prelude in E minor, BWV879.wav" WAVE
TRACK 19 AUDIO
TITLE "Prelude in E minor, BWV879"
PERFORMER "Koroliov, Evgeni"
INDEX 01 00:00:00
FILE "320 - Fugue a 3 in E minor, BWV879.wav" WAVE
TRACK 20 AUDIO
TITLE "Fugue a 3 in E minor, BWV879"
PERFORMER "Koroliov, Evgeni"
INDEX 01 00:00:00
FILE "321 - Prelude in F major, BWV880.wav" WAVE
TRACK 21 AUDIO
TITLE "Prelude in F major, BWV880"
PERFORMER "Koroliov, Evgeni"
INDEX 01 00:00:00
FILE "322 - Fugue a 3 in F major, BWV880.wav" WAVE
TRACK 22 AUDIO
TITLE "Fugue a 3 in F major, BWV880"
PERFORMER "Koroliov, Evgeni"
INDEX 01 00:00:00
FILE "323 - Prelude in F minor, BWV881.wav" WAVE
TRACK 23 AUDIO
TITLE "Prelude in F minor, BWV881"
PERFORMER "Koroliov, Evgeni"
INDEX 01 00:00:00

meltsheep
03.08.2006, 11:22
Hi

I can't mount any EAC generated cue files. I get the above error message.

HEre's a sample .cue sheet. Maybe someone could examine it and let me know what the problem is ? Thanks

REM GENRE Classical
REM DATE 2005
REM DISCID C910CC0C
REM COMMENT "ExactAudioCopy v0.95b3"
CATALOG 0028947755746
PERFORMER "Renee Fleming, soprano, Claudio Abbado - Berlin Philharmonic Orchestra"
TITLE "Gustav Mahler - Symphony No.4, Alban Berg - Seven Early Songs"
FILE "01 - Mahler - Symphony No.4 in G major - I. Bedächtig. Nicht eilen.wav" WAVE
TRACK 01 AUDIO
TITLE "Mahler - Symphony No.4 in G major - I. Bedächtig. Nicht eilen"
PERFORMER "Renee Fleming, soprano, Claudio Abbado - Berlin Philharmonic Orchestra"
ISRC DEN960500051
INDEX 01 00:00:00
FILE "02 - II. In gemächlicher Bewegung, ohne Hast.wav" WAVE
TRACK 02 AUDIO
TITLE "II. In gemächlicher Bewegung, ohne Hast"
PERFORMER "Renee Fleming, soprano, Claudio Abbado - Berlin Philharmonic Orchestra"
ISRC DEN960500052
INDEX 01 00:00:00
FILE "03 - III. Ruhevoll (Poco adagio).wav" WAVE
TRACK 03 AUDIO
TITLE "III. Ruhevoll (Poco adagio)"
PERFORMER "Renee Fleming, soprano, Claudio Abbado - Berlin Philharmonic Orchestra"
ISRC DEN960500053
INDEX 01 00:00:00
FILE "04 - IV. Sehr behaglich ґWir genießen die himmlischen Freudenґ Sopran-Solo nach Worten aus ґDes Knaben Wunderhornґ.wav" WAVE
TRACK 04 AUDIO
TITLE "IV. Sehr behaglich ґWir genießen die himmlischen Freudenґ Sopran-Solo nach Wo..."
PERFORMER "Renee Fleming, soprano, Claudio Abbado - Berlin Philharmonic Orchestra"
ISRC DEN960500054
INDEX 01 00:00:00
TRACK 05 AUDIO
TITLE "Berg - Seven Early Songs - I. Nacht (Hauptmann)"
PERFORMER "Renee Fleming, soprano, Claudio Abbado - Berlin Philharmonic Orchestra"
ISRC DEN960500061
INDEX 00 09:21:04
FILE "05 - Berg - Seven Early Songs - I. Nacht (Hauptmann).wav" WAVE
INDEX 01 00:00:00
FILE "06 - II. Schilflied (Lenau).wav" WAVE
TRACK 06 AUDIO
TITLE "II. Schilflied (Lenau)"
PERFORMER "Renee Fleming, soprano, Claudio Abbado - Berlin Philharmonic Orchestra"
ISRC DEN960500062
INDEX 01 00:00:00
FILE "07 - III. Die Nachtigall (Storm).wav" WAVE
TRACK 07 AUDIO
TITLE "III. Die Nachtigall (Storm)"
PERFORMER "Renee Fleming, soprano, Claudio Abbado - Berlin Philharmonic Orchestra"
ISRC DEN960500063
INDEX 01 00:00:00
FILE "08 - IV. Traumgekrönt (Rilke).wav" WAVE
TRACK 08 AUDIO
TITLE "IV. Traumgekrönt (Rilke)"
PERFORMER "Renee Fleming, soprano, Claudio Abbado - Berlin Philharmonic Orchestra"
ISRC DEN960500064
INDEX 01 00:00:00
FILE "09 - V. Im Zimmer (Schlaf).wav" WAVE
TRACK 09 AUDIO
TITLE "V. Im Zimmer (Schlaf)"
PERFORMER "Renee Fleming, soprano, Claudio Abbado - Berlin Philharmonic Orchestra"
ISRC DEN960500065
INDEX 01 00:00:00
FILE "10 - VI. Liebesode (Hartleben).wav" WAVE
TRACK 10 AUDIO
TITLE "VI. Liebesode (Hartleben)"
PERFORMER "Renee Fleming, soprano, Claudio Abbado - Berlin Philharmonic Orchestra"
ISRC DEN960500066
INDEX 01 00:00:00
FILE "11 - VII. Sommertage (Hohenberg).wav" WAVE
TRACK 11 AUDIO
TITLE "VII. Sommertage (Hohenberg)"
PERFORMER "Renee Fleming, soprano, Claudio Abbado - Berlin Philharmonic Orchestra"
ISRC DEN960500067
INDEX 01 00:00:00
FILE "12 - Applause.wav" WAVE
TRACK 12 AUDIO
TITLE "Applause"
PERFORMER "Renee Fleming, soprano, Claudio Abbado - Berlin Philharmonic Orchestra"
ISRC DEN960500068
INDEX 01 00:00:00

Underheaven
03.08.2006, 11:56
TRACK 05 AUDIO
TITLE "Berg - Seven Early Songs - I. Nacht (Hauptmann)"
PERFORMER "Renee Fleming, soprano, Claudio Abbado - Berlin Philharmonic Orchestra"
ISRC DEN960500061
INDEX 00 09:21:04
FILE "05 - Berg - Seven Early Songs - I. Nacht (Hauptmann).wav" WAVE
INDEX 01 00:00:00


I think the problem lies in track 5. It may occur later in the CUE sheet too. But this is the first odd thing I saw. You've got two indexes and FILE usually comes before TRACK but does not in this case.

LigH
02.07.2007, 07:24
Same issue with this one (see transition between tracks 04-05 or 07-08 or 10-11):

REM DISCID B40DA30C
REM COMMENT "ExactAudioCopy v0.95b4"
PERFORMER "The Prodigy"
TITLE "Always Outnumbered Never Outgunned"
FILE "01 - Spitfire.wav" WAVE
TRACK 01 AUDIO
TITLE "Spitfire"
PERFORMER "The Prodigy"
INDEX 01 00:00:00
FILE "02 - Girls.wav" WAVE
TRACK 02 AUDIO
TITLE "Girls"
PERFORMER "The Prodigy"
INDEX 01 00:00:00
FILE "03 - Memphis Bells.wav" WAVE
TRACK 03 AUDIO
TITLE "Memphis Bells"
PERFORMER "The Prodigy"
INDEX 01 00:00:00
FILE "04 - Get Up Get Off.wav" WAVE
TRACK 04 AUDIO
TITLE "Get Up Get Off"
PERFORMER "The Prodigy"
INDEX 01 00:00:00
TRACK 05 AUDIO
TITLE "Hot Ride"
PERFORMER "The Prodigy"
INDEX 00 04:19:44
FILE "05 - Hot Ride.wav" WAVE
INDEX 01 00:00:00
FILE "06 - Wake Up Call.wav" WAVE
TRACK 06 AUDIO
TITLE "Wake Up Call"
PERFORMER "The Prodigy"
INDEX 01 00:00:00
FILE "07 - Action Radar.wav" WAVE
TRACK 07 AUDIO
TITLE "Action Radar"
PERFORMER "The Prodigy"
INDEX 01 00:00:00
TRACK 08 AUDIO
TITLE "Medusa's Path"
PERFORMER "The Prodigy"
INDEX 00 05:32:55
FILE "08 - Medusa's Path.wav" WAVE
INDEX 01 00:00:00
FILE "09 - Phoenix.wav" WAVE
TRACK 09 AUDIO
TITLE "Phoenix"
PERFORMER "The Prodigy"
INDEX 01 00:00:00
FILE "10 - You'll Be Under My Wheels.wav" WAVE
TRACK 10 AUDIO
TITLE "You'll Be Under My Wheels"
PERFORMER "The Prodigy"
INDEX 01 00:00:00
TRACK 11 AUDIO
TITLE "The Way It Is"
PERFORMER "The Prodigy"
INDEX 00 03:56:54
FILE "11 - The Way It Is.wav" WAVE
INDEX 01 00:00:00
TRACK 12 AUDIO
TITLE "Shoot Down"
PERFORMER "The Prodigy"
INDEX 00 05:46:12
FILE "12 - Shoot Down.wav" WAVE
INDEX 01 00:00:00

It looks like the WAV extraction used detected silence or gaps, but the CD tracks are slightly off, starting not at an audible beginning of a track but a bit in front of one.

I have seen Audio CD players counting from -00:0X (a few seconds before the track start), passing 00:00 at the track start, when displaying the current track time for such disks. It must be a usual "trick" for consecutively playing tracks.

Development
03.07.2007, 04:28
It is obvious that for each wav FILE statement should precede TRACK statement - mentioned CUE files simply not follow specification and are corrupt.

LigH
03.07.2007, 06:55
Then I wonder how a CUE file should look for the case that the WAV files don't start exactly at the CD track indexes.

And as long as only EAC supports this own kind of cue sheets, one would have to burn the audio CD with EAC onto a CD-R or CD-RW media, and grab it again from there if necessary... If that is not an obvious example for the usefulness of a virtual CD-RW drive, then I can't imagine any better.