PDA

View Full Version : Unable to mount image. Cue sheet: line 4 - File not accessable.



ohalan
05.01.2010, 11:33
hello guys ! First off thanks for your time, i tried to work this out myself for about a week now my last resort was to post on the forum. everytime i try to mount a Dreamcast " image " .cue this shows...>>>Unable to mount image. Cue sheet: line 4 - File not accessable. <<<< can som1 explain to me what it is and how i can over come this problem ? im trying to mount a DreamCast game soo it works on my emulator.


if u guys need more info on the issue i would gladly post but any info that u guys provide would be MAJORLY appreciated coz im losing it ! thanks in advance. hope u all had a good xmas.

Blazkowicz
05.01.2010, 16:26
Please post file names of cue and bin and content of cue file.

ohalan
06.01.2010, 06:02
KAL-TXR KAL-TXR
BIN File CUE File

What do u mean by ' CONTENT OF CUE FILE ' ?

Blazkowicz
06.01.2010, 10:29
Well, you open the cue file with e. g. notepad and post the content.

ohalan
06.01.2010, 15:42
hey 1st of i just wana thank u for ur time..

umm i opened the .CUE in note pad n this came up



FILE "KAL-TXR.BIN" BINARY
TRACK 01 MODE1/2352
INDEX 01 00:00:00
FILE "track_02.wav" WAVE
TRACK 02 AUDIO
INDEX 01 00:00:00
FILE "track_03.wav" WAVE
TRACK 03 AUDIO
INDEX 01 00:00:00
FILE "track_04.wav" WAVE
TRACK 04 AUDIO
INDEX 01 00:00:00
FILE "track_05.wav" WAVE
TRACK 05 AUDIO
INDEX 01 00:00:00
FILE "track_06.wav" WAVE
TRACK 06 AUDIO
INDEX 01 00:00:00
FILE "track_07.wav" WAVE
TRACK 07 AUDIO
INDEX 01 00:00:00
FILE "track_08.wav" WAVE
TRACK 08 AUDIO
INDEX 01 00:00:00
FILE "track_09.wav" WAVE
TRACK 09 AUDIO
INDEX 01 00:00:00
FILE "track_10.wav" WAVE
TRACK 10 AUDIO
INDEX 01 00:00:00
FILE "track_11.wav" WAVE
TRACK 11 AUDIO
INDEX 01 00:00:00
FILE "track_12.wav" WAVE
TRACK 12 AUDIO
INDEX 01 00:00:00
FILE "track_13.wav" WAVE
TRACK 13 AUDIO
INDEX 01 00:00:00
FILE "track_14.wav" WAVE
TRACK 14 AUDIO
INDEX 01 00:00:00
FILE "track_15.wav" WAVE
TRACK 15 AUDIO
INDEX 01 00:00:00
FILE "track_16.wav" WAVE
TRACK 16 AUDIO
INDEX 01 00:00:00
FILE "track_17.wav" WAVE
TRACK 17 AUDIO
INDEX 01 00:00:00
FILE "track_18.wav" WAVE
TRACK 18 AUDIO
INDEX 01 00:00:00
FILE "track_19.wav" WAVE
TRACK 19 AUDIO
INDEX 01 00:00:00
FILE "track_20.wav" WAVE
TRACK 20 AUDIO
INDEX 01 00:00:00


is that what u wer asking for ?

Blazkowicz
06.01.2010, 17:13
You actually have the wav files in same folder?

ohalan
11.01.2010, 07:27
yeah it looks like its in the right order? but why doesnt it get mounted ? what does this all mean ?

Terramex
11.01.2010, 15:19
@ohalan
How have you created that image ?