PDA

View Full Version : error mainting APE and CUE



erik6
30.07.2012, 09:52
Windows 7 64Bit

image:
CDImage.ape
CDimage.cue

Cue files :
It works fine for this one::)

PERFORMER "Ton Koopman (The Amsterdam Baroque Orchestra & Choir)"
TITLE "J.S.Bach - Complete Cantatas - Vol.01 CD-1"
FILE "CDImage.ape" WAVE
TRACK 01 AUDIO
TITLE "BWV.021 - Part 1 - 1. Sinfonia"
PERFORMER "Ton Koopman (The Amsterdam Baroque Orchestra & Choir)"
INDEX 01 00:00:00
TRACK 02 AUDIO
TITLE "BWV.021 - Part 1 - 2. Chorus: Ich hatte viel Bekummernis"
PERFORMER "Ton Koopman (The Amsterdam Baroque Orchestra & Choir)"
INDEX 01 03:00:30
TRACK 03 AUDIO
TITLE "BWV.021 - Part 1 - 3. Aria (Soprano): Seufzer, Tranen, Kummer, Not"
PERFORMER "Ton Koopman (The Amsterdam Baroque Orchestra & Choir)"
INDEX 01 06:44:06
TRACK 04 AUDIO
TITLE "BWV.021 - Part 1 - 4. Recititive (Soprano): Wie hast du dich, mein Gott"
PERFORMER "Ton Koopman (The Amsterdam Baroque Orchestra & Choir)"
INDEX 01 11:30:12
TRACK 05 AUDIO
TITLE "BWV.021 - Part 1 - 5. Aria (Soprano): Bache von gesalznen Zahren"
PERFORMER "Ton Koopman (The Amsterdam Baroque Orchestra & Choir)"
INDEX 01 13:04:25
TRACK 06 AUDIO
TITLE "BWV.021 - Part 1 - 6. Chorus: Was betrubst du dich, meine Seele"
PERFORMER "Ton Koopman (The Amsterdam Baroque Orchestra & Choir)"
INDEX 01 19:38:12
TRACK 07 AUDIO
TITLE "BWV.021 - Part 2 - 1. Recitative (Soprano, Bass): Ach Jesu, meine Ruh"
PERFORMER "Ton Koopman (The Amsterdam Baroque Orchestra & Choir)"
INDEX 01 23:13:12
TRACK 08 AUDIO
TITLE "BWV.021 - Part 2 - 2. Duet (Soprano, Bass): Komm, mein Jesu"
PERFORMER "Ton Koopman (The Amsterdam Baroque Orchestra & Choir)"
INDEX 01 24:48:40
TRACK 09 AUDIO
TITLE "BWV.021 - Part 2 - 3. Chorus: Sei nun wieder zufrieden"
PERFORMER "Ton Koopman (The Amsterdam Baroque Orchestra & Choir)"
INDEX 01 29:14:25
TRACK 10 AUDIO
TITLE "BWV.021 - Part 2 - 4. Aria (Soprano): Erfreue dich, Seele"
PERFORMER "Ton Koopman (The Amsterdam Baroque Orchestra & Choir)"
INDEX 01 34:53:42
TRACK 11 AUDIO
TITLE "BWV.021 - Part 2 - 5. Chorus: Das Lamm, das erwurget ist"
PERFORMER "Ton Koopman (The Amsterdam Baroque Orchestra & Choir)"
INDEX 01 38:11:27
TRACK 12 AUDIO
TITLE "BWV.131 - 1. Symphonic Chorus: Aus der Tiefen rufe ich, Herr, zu dir"
PERFORMER "Ton Koopman (The Amsterdam Baroque Orchestra & Choir)"
INDEX 01 41:14:12
TRACK 13 AUDIO
TITLE "BWV.131 - 2. Aria (Bass, Chorus): So du willst, Herr Sunde zurechnen"
PERFORMER "Ton Koopman (The Amsterdam Baroque Orchestra & Choir)"
INDEX 01 45:32:15
TRACK 14 AUDIO
TITLE "BWV.131 - 3. Chorus: Ich harre des Herrn"
PERFORMER "Ton Koopman (The Amsterdam Baroque Orchestra & Choir)"
INDEX 01 49:52:35
TRACK 15 AUDIO
TITLE "BWV.131 - 4. Aria (Tenor, Chorus): Meine Seele wartet auf den Herrn"
PERFORMER "Ton Koopman (The Amsterdam Baroque Orchestra & Choir)"
INDEX 01 53:27:05
TRACK 16 AUDIO
TITLE "BWV.131 - 5. Chorus: Israel, hoffe auf den Herrn"
PERFORMER "Ton Koopman (The Amsterdam Baroque Orchestra & Choir)"
INDEX 01 59:31:42
TRACK 17 AUDIO
TITLE "BWV.021 - Appendix 1. Chorus: Sei nun wieder zufrieden"
PERFORMER "Ton Koopman (The Amsterdam Baroque Orchestra & Choir)"
INDEX 01 63:38:12

error whit this one ::frown:

PERFORMER "Ton Koopman (The Amsterdam Baroque Orchestra & Choir)"
TITLE "J.S.Bach - Complete Cantatas - Vol.01 CD-2"
FILE "CDImage.ape" WAVE
TRACK 01 AUDIO
TITLE "BWV.106 - 1. Sonatina"
PERFORMER "Ton Koopman (The Amsterdam Baroque Orchestra & Choir)"
INDEX 01 00:00:00
TRACK 02 AUDIO
TITLE "BWV.106 - 2. Chorus - Arioso (Tenor) - Arioso (Bass)"
PERFORMER "Ton Koopman (The Amsterdam Baroque Orchestra & Choir)"
INDEX 01 02:36:05
TRACK 03 AUDIO
TITLE "BWV.106 - 3. Aria (Alto) - Arioso (Chorus)(Alto, Bass)"
PERFORMER "Ton Koopman (The Amsterdam Baroque Orchestra & Choir)"
INDEX 01 10:59:50
TRACK 04 AUDIO
TITLE "BWV.106 - 4. Chorus: Glorie, Lob, Ehr und Herrlichkeit"
PERFORMER "Ton Koopman (The Amsterdam Baroque Orchestra & Choir)"
INDEX 01 16:55:45
TRACK 05 AUDIO
TITLE "BWV.196 - 1. Sinfonia"
PERFORMER "Ton Koopman (The Amsterdam Baroque Orchestra & Choir)"
INDEX 01 19:59:12
TRACK 06 AUDIO
TITLE "BWV.196 - 2. Chorus: Der Herr denket an uns"
PERFORMER "Ton Koopman (The Amsterdam Baroque Orchestra & Choir)"
INDEX 01 21:40:02
TRACK 07 AUDIO
TITLE "BWV.196 - 3. Aria (Soprano): Er segnet, die den Herrn f rchten"
PERFORMER "Ton Koopman (The Amsterdam Baroque Orchestra & Choir)"
INDEX 01 23:33:00
TRACK 08 AUDIO
TITLE "BWV.196 - 4. Duet (Tenor, Bass): Der Herr segne euch"
PERFORMER "Ton Koopman (The Amsterdam Baroque Orchestra & Choir)"
INDEX 01 26:08:15
TRACK 09 AUDIO
TITLE "BWV.196 - 5. Chorus: Ihr seid die Gesegneten des Herrn"
PERFORMER "Ton Koopman (The Amsterdam Baroque Orchestra & Choir)"
INDEX 01 28:17:07
TRACK 10 AUDIO
TITLE "BWV.071 - 1. Chorus: Gott ist mein K nig"
PERFORMER "Ton Koopman (The Amsterdam Baroque Orchestra & Choir)"
INDEX 01 31:03:12
TRACK 11 AUDIO
TITLE "BWV.071 - 2. Aria - Chorus (Tenor, Soprano): Ich bin nun achtzig Jahr - Soll ich auf dieser Welt"
PERFORMER "Ton Koopman (The Amsterdam Baroque Orchestra & Choir)"
INDEX 01 32:51:17
TRACK 12 AUDIO
TITLE "BWV.071 - 3. Chorus (aria at 4 voci): Dein Alter sei wie deine Jugend"
PERFORMER "Ton Koopman (The Amsterdam Baroque Orchestra & Choir)"
INDEX 01 36:20:15
TRACK 13 AUDIO
TITLE "BWV.071 - 4. Arioso (Bass): Tag und Nacht ist dein"
PERFORMER "Ton Koopman (The Amsterdam Baroque Orchestra & Choir)"
INDEX 01 37:51:07
TRACK 14 AUDIO
TITLE "BWV.071 - 5. Aria (Alto): Durch m chtige Kraft"
PERFORMER "Ton Koopman (The Amsterdam Baroque Orchestra & Choir)"
INDEX 01 40:42:60
TRACK 15 AUDIO
TITLE "BWV.071 - 6. Chorus: Du wollest dem Feinde nicht geben"
PERFORMER "Ton Koopman (The Amsterdam Baroque Orchestra & Choir)"
INDEX 01 41:54:02
TRACK 16 AUDIO
TITLE "BWV.071 - 7. Chorus (Solo, Chorus): Das neue Regiment"
PERFORMER "Ton Koopman (The Amsterdam Baroque Orchestra & Choir)"
INDEX 01 45:44:27
TRACK 17 AUDIO
TITLE "BWV.150 - 1. Sinfonia"
PERFORMER "Ton Koopman (The Amsterdam Baroque Orchestra & Choir)"
INDEX 01 49:27:12
TRACK 18 AUDIO
TITLE "BWV.150 - 2. Chorus: Nach dir, Herr, verlanget mich"
PERFORMER "Ton Koopman (The Amsterdam Baroque Orchestra & Choir)"
INDEX 01 50:51:42
TRACK 19 AUDIO
TITLE "BWV.150 - 3. Aria (Soprano): Doch bin und bleibe ich vergn gt"
PERFORMER "Ton Koopman (The Amsterdam Baroque Orchestra & Choir)"
INDEX 01 53:59:40
TRACK 20 AUDIO
TITLE "BWV.150 - 4. Chorus: Leite mich in deiner Wahrheit"
PERFORMER "Ton Koopman (The Amsterdam Baroque Orchestra & Choir)"
INDEX 01 55:36:27
TRACK 21 AUDIO
TITLE "BWV.150 - 5. Aria (Terzetto: Alto, Tenor, Bass): Zedern m ssen von den Winden"
PERFORMER "Ton Koopman (The Amsterdam Baroque Orchestra & Choir)"
INDEX 01 57:17:02
TRACK 22 AUDIO
TITLE "BWV.150 - 6. Chorus: Meine Augen sehen stets zu dem Herrn"
PERFORMER "Ton Koopman (The Amsterdam Baroque Orchestra & Choir)"
INDEX 01 58:36:50
TRACK 23 AUDIO
TITLE "BWV.150 - 7. Chorus: Meine Tage in dem Leide"
PERFORMER "Ton Koopman (The Amsterdam Baroque Orchestra & Choir)"
INDEX 01 60:39:30

Terramex
30.07.2012, 12:14
Apparently in the first cue the german "Umlaute" (ä, ö, ü) are replaced by a, o, u.
In the second they're omitted.

I'd try to open that cue in text editor, fill the spaces, and save with ANSI Encoding.

TITLE "BWV.196 - 3. Aria (Soprano): Er segnet, die den Herrn furchten"
TITLE "BWV.071 - 1. Chorus: Gott ist mein Konig"
TITLE "BWV.071 - 5. Aria (Alto): Durch machtige Kraft"
TITLE "BWV.150 - 3. Aria (Soprano): Doch bin und bleibe ich vergnugt"
TITLE "BWV.150 - 5. Aria (Terzetto: Alto, Tenor, Bass): Zedern mussen von den Winden"

erik6
30.07.2012, 19:06
Apparently in the first cue the german "Umlaute" (ä, ö, ü) are replaced by a, o, u.
In the second they're omitted.

I'd try to open that cue in text editor, fill the spaces, and save with ANSI Encoding.

TITLE "BWV.196 - 3. Aria (Soprano): Er segnet, die den Herrn furchten"
TITLE "BWV.071 - 1. Chorus: Gott ist mein Konig"
TITLE "BWV.071 - 5. Aria (Alto): Durch machtige Kraft"
TITLE "BWV.150 - 3. Aria (Soprano): Doch bin und bleibe ich vergnugt"
TITLE "BWV.150 - 5. Aria (Terzetto: Alto, Tenor, Bass): Zedern mussen von den Winden"

Thanks for the replay,
Still not working after all.

Terramex
31.07.2012, 20:56
It's probably the fastest solution to create a new image with different settings and/or database information.
Maybe it can also be fixed with CUETools (http://www.cuetools.net/wiki/Main_Page) if you want to proceed with this project.