PDA

View Full Version : Can't Mount .Cue Files with DAEMON Tools



AceDiamond
25.09.2012, 07:58
I even downloaded a trial version of DAEMON Tools Standard Pro Edition 5.1, and I still can't manage to mount any .cue files. Every other file format I tried works (.iso, .ccd), but the .cue has a red crossed circle on it as soon as I load it, and when I try to mount it I get the error message "Unable to Mount Image. File not accessible."

Here is an example of a .cue file that I couldn't mount;

FILE "Guardian Heroes.iso" BINARY
TRACK 01 MODE1/2048
INDEX 01 00:00:00
POSTGAP 00:02:00
FILE "Guardian Heroes 02.wav" WAVE
TRACK 02 AUDIO
PREGAP 00:02:00
INDEX 01 00:00:00
FILE "Guardian Heroes 03.wav" WAVE
TRACK 03 AUDIO
INDEX 01 00:00:00
FILE "Guardian Heroes 04.wav" WAVE
TRACK 04 AUDIO
INDEX 01 00:00:00
FILE "Guardian Heroes 05.wav" WAVE
TRACK 05 AUDIO
INDEX 01 00:00:00
FILE "Guardian Heroes 06.wav" WAVE
TRACK 06 AUDIO
INDEX 01 00:00:00
FILE "Guardian Heroes 07.wav" WAVE
TRACK 07 AUDIO
INDEX 01 00:00:00
FILE "Guardian Heroes 08.wav" WAVE
TRACK 08 AUDIO
INDEX 01 00:00:00
FILE "Guardian Heroes 09.wav" WAVE
TRACK 09 AUDIO
INDEX 01 00:00:00
FILE "Guardian Heroes 10.wav" WAVE
TRACK 10 AUDIO
INDEX 01 00:00:00
FILE "Guardian Heroes 11.wav" WAVE
TRACK 11 AUDIO
INDEX 01 00:00:00
FILE "Guardian Heroes 12.wav" WAVE
TRACK 12 AUDIO
INDEX 01 00:00:00
FILE "Guardian Heroes 13.wav" WAVE
TRACK 13 AUDIO
INDEX 01 00:00:00
FILE "Guardian Heroes 14.wav" WAVE
TRACK 14 AUDIO
INDEX 01 00:00:00
FILE "Guardian Heroes 15.wav" WAVE
TRACK 15 AUDIO
INDEX 01 00:00:00
FILE "Guardian Heroes 16.wav" WAVE
TRACK 16 AUDIO
INDEX 01 00:00:00
FILE "Guardian Heroes 17.wav" WAVE
TRACK 17 AUDIO
INDEX 01 00:00:00
FILE "Guardian Heroes 18.wav" WAVE
TRACK 18 AUDIO
INDEX 01 00:00:00
FILE "Guardian Heroes 19.wav" WAVE
TRACK 19 AUDIO
INDEX 01 00:00:00
FILE "Guardian Heroes 20.wav" WAVE
TRACK 20 AUDIO
INDEX 01 00:00:00
FILE "Guardian Heroes 21.wav" WAVE
TRACK 21 AUDIO
INDEX 01 00:00:00
FILE "Guardian Heroes 22.wav" WAVE
TRACK 22 AUDIO
INDEX 01 00:00:00
FILE "Guardian Heroes 23.wav" WAVE
TRACK 23 AUDIO
INDEX 01 00:00:00
FILE "Guardian Heroes 24.wav" WAVE
TRACK 24 AUDIO
INDEX 01 00:00:00