PDA

View Full Version : Iso / Cue image problem



millansoft
13.04.2015, 00:02
Hello,

I have several images (Sega Saturn and Sega Mega-CD), and I rip them to mp3 with the following utility:

https://github.com/notaz/picodrive/tree/master/tools/bin_to_cso_mp3

When I try to mount the cue file, Daemon Tools just open a Window that says "Image Invalid". If I try to mount the iso file it mounts fine. But if I do that, it doesn't mount the mp3 files as audio tracks.

Here is a cue file that refuses to mount Daemon Tools (tried version 4.49.1 and 5.01):


FILE "Battle Stations (USA).iso" BINARY
TRACK 01 MODE1/2048
INDEX 01 00:00:00
POSTGAP 00:02:00
FILE "Battle Stations (USA)_02.mp3" MP3
TRACK 02 AUDIO
PREGAP 00:02:00
INDEX 01 00:00:00
FILE "Battle Stations (USA)_03.mp3" MP3
TRACK 03 AUDIO
INDEX 01 00:00:00
FILE "Battle Stations (USA)_04.mp3" MP3
TRACK 04 AUDIO
INDEX 01 00:00:00
FILE "Battle Stations (USA)_05.mp3" MP3
TRACK 05 AUDIO
INDEX 01 00:00:00
FILE "Battle Stations (USA)_06.mp3" MP3
TRACK 06 AUDIO
INDEX 01 00:00:00
FILE "Battle Stations (USA)_07.mp3" MP3
TRACK 07 AUDIO
INDEX 01 00:00:00
FILE "Battle Stations (USA)_08.mp3" MP3
TRACK 08 AUDIO
INDEX 01 00:00:00
FILE "Battle Stations (USA)_09.mp3" MP3
TRACK 09 AUDIO
INDEX 01 00:00:00
FILE "Battle Stations (USA)_10.mp3" MP3
TRACK 10 AUDIO
INDEX 01 00:00:00
FILE "Battle Stations (USA)_11.mp3" MP3
TRACK 11 AUDIO
INDEX 01 00:00:00
FILE "Battle Stations (USA)_12.mp3" MP3
TRACK 12 AUDIO
INDEX 01 00:00:00
FILE "Battle Stations (USA)_13.mp3" MP3
TRACK 13 AUDIO
INDEX 01 00:00:00
FILE "Battle Stations (USA)_14.mp3" MP3
TRACK 14 AUDIO
INDEX 01 00:00:00
FILE "Battle Stations (USA)_15.mp3" MP3
TRACK 15 AUDIO
INDEX 01 00:00:00
FILE "Battle Stations (USA)_16.mp3" MP3
TRACK 16 AUDIO
INDEX 01 00:00:00
FILE "Battle Stations (USA)_17.mp3" MP3
TRACK 17 AUDIO
INDEX 01 00:00:00
FILE "Battle Stations (USA)_18.mp3" MP3
TRACK 18 AUDIO
INDEX 01 00:00:00

Anyone knows whats wrong?

Thanks!

Terramex
16.04.2015, 08:33
DAEMON Tools doesn't support MP3 - only WAV, FLAC and APE.