PDA

View Full Version : Unable to mount image...



FH16
22.12.2004, 09:50
Will I'm trying to mount a cue Daemon return an error "Unable to mount image. Cue sheet: line 3 - This Track file type is currently unsupported"
Here is the entire cue

PERFORMER "VA"
TITLE "Club Energy Vol 10 (Mixed by Ray Knox)"
FILE "01_VA_-_Club_Energy_Vol_10_(Mixed_by_Ray_Knox)-MOD.mp3" MP3
TRACK 01 AUDIO
TITLE "Summer Dreaming (Ray Knox Mix) "
PERFORMER "Fun Brothers"
INDEX 01 00:00:00
TRACK 02 AUDIO
TITLE "Rock (Pulsedriver Remix) "
PERFORMER "M.Y.C."
INDEX 01 05:28:53
TRACK 03 AUDIO
TITLE "The Key, The Secret (Rave Allstars Remix) "
PERFORMER "Phobos&Deimos"
INDEX 01 08:27:32
TRACK 04 AUDIO
TITLE "Ready To Go (The Real Booty Babes Mix) "
PERFORMER "The Real Booty Babes Vol.3"
INDEX 01 12:18:63
TRACK 05 AUDIO
TITLE "And Back (Club Mix) "
PERFORMER "Jens O. & Marco Kubik"
INDEX 01 16:13:47
TRACK 06 AUDIO
TITLE "Slamming (Club Mix) "
PERFORMER "Pulsedriver"
INDEX 01 20:49:74
TRACK 07 AUDIO
TITLE "Bad Boy (Central Seven Extended Mix) "
PERFORMER "Cascada"
INDEX 01 25:26:68
TRACK 08 AUDIO
TITLE "We're Back "
PERFORMER "Pimp Headz"
INDEX 01 30:19:35
TRACK 09 AUDIO
TITLE "I've Been Thinking About You (89er's & Rave Allstars Remix) "
PERFORMER "Damae feat. Londonbeat"
INDEX 01 35:49:46
TRACK 10 AUDIO
TITLE "Every Single Day (Club Mix) "
PERFORMER "DJ Jean"
INDEX 01 41:31:38
TRACK 11 AUDIO
TITLE "How You Feel? "
PERFORMER "Drop Kickz"
INDEX 01 45:19:40
TRACK 12 AUDIO
TITLE "Your Destination (Alex Megane Remix - Club Edit) "
PERFORMER "Accuface"
INDEX 01 50:21:31
TRACK 13 AUDIO
TITLE "Sometimes (Club Mix) "
PERFORMER "2 Vibez"
INDEX 01 56:33:54
TRACK 14 AUDIO
TITLE "Piece Of Heaven (Original Mix) "
PERFORMER "Akira"
INDEX 01 61:49:00
TRACK 15 AUDIO
TITLE "Face The Base (Pulsedriver Remix) "
PERFORMER "Bulldozer"
INDEX 01 66:22:30
TRACK 16 AUDIO
TITLE "Ravers Fantasy (Club Mix) "
PERFORMER "Tune Up!"
INDEX 01 70:50:57

What is wrong with this cue ?

Copytrooper
22.12.2004, 11:47
"Unable to mount image. Cue sheet: line 3 - This Track file type is currently unsupported"
What is wrong with this cue ?
The answer is already given in the error message :!: MP3 files are currently not supported :idea:

DarkCrusader
23.12.2004, 03:41
i'm somewhat computer-illiterate, so i'm having a lot of trouble. the image i'm trying to mount is of a japanese, 4-disc game called (and i'm not completely sure about this) "Metal Arm GaChuu".
the error is: Unable to mount image. Cue sheet: Unable to access image file.

i don't really understand what the problems is. could someone help me out?

FH16
23.12.2004, 05:43
i'm somewhat computer-illiterate, so i'm having a lot of trouble. the image i'm trying to mount is of a japanese, 4-disc game called (and i'm not completely sure about this) "Metal Arm GaChuu".
the error is: Unable to mount image. Cue sheet: Unable to access image file.

i don't really understand what the problems is. could someone help me out?

DarkCrusader, Try to mount the .bin file derctly.
Can anyone help me with mp3 image files? How can I take the tracks from this file?

DarkCrusader
24.12.2004, 03:25
DarkCrusader, Try to mount the .bin file derctly.


ok... i tried that and it didn't work... what do i do?

DarkCrusader
24.12.2004, 06:57
i went through the subfolders in the D-Tools folder.
i found in the ...\Plugins\Images\ folder, the following .dll files were shown:
bw5mount.dll
ccdmount.dll
mdsmount.dll
nrgmount.dll
pdimount.dll
is it normal that the other image .dll's are not shown in the folder?

FH16
29.12.2004, 08:30
i went through the subfolders in the D-Tools folder.
i found in the ...\Plugins\Images\ folder, the following .dll files were shown:
bw5mount.dll
ccdmount.dll
mdsmount.dll
nrgmount.dll
pdimount.dll
is it normal that the other image .dll's are not shown in the folder?

Probably it is not a bin file. try to rename this file .avi or .mpeg maybe is a fake adult movie