PDA

View Full Version : Unable to mount CUE-Sheet



tripleSIXblood
28.12.2005, 16:29
Ich bekomme die Meldung:

Unable to mout image. Cue sheet: line 3 - The Track file type is currently unsupported.



PERFORMER "Soehne Mannheims"
TITLE "Power of the sound"
FILE "01_Soehne_Mannheims_-_Power_of_the_sound_CD1.mp3" MP3
TRACK 01 AUDIO
TITLE "Can You Feel It"
PERFORMER "Soehne Mannheims"
INDEX 01 00:00:00
TRACK 02 AUDIO
TITLE "Im Interesse unserer Gemeinschaft"
PERFORMER "Soehne Mannheims"
INDEX 01 07:04:61
TRACK 03 AUDIO
TITLE "Komm Heim"
PERFORMER "Soehne Mannheims"
INDEX 01 12:25:17
TRACK 04 AUDIO
TITLE "Koenig der Koenige"
PERFORMER "Soehne Mannheims"
INDEX 01 17:42:03
TRACK 05 AUDIO
TITLE "Zurueck zu dir"
PERFORMER "Soehne Mannheims"
INDEX 01 22:17:49
TRACK 06 AUDIO
TITLE "Sofern du mir nah bist"
PERFORMER "Soehne Mannheims"
INDEX 01 27:52:15
TRACK 07 AUDIO
TITLE "Jah Is Changing All"
PERFORMER "Soehne Mannheims"
INDEX 01 35:04:45
TRACK 08 AUDIO
TITLE "The Power Of The Sound"
PERFORMER "Soehne Mannheims"
INDEX 01 41:40:21
TRACK 09 AUDIO
TITLE "Meine Stadt"
PERFORMER "Soehne Mannheims"
INDEX 01 48:11:10
TRACK 10 AUDIO
TITLE "Vielleicht - Unplugged"
PERFORMER "Soehne Mannheims"
INDEX 01 54:12:40
TRACK 11 AUDIO
TITLE "Und wenn ein Lied"
PERFORMER "Soehne Mannheims"
INDEX 01 59:09:19



was kann ich jetzt machen, dass ich die CD mounten kann ???

MFG

tripleSIXblood

Copytrooper
28.12.2005, 17:14
Nix - MP3 cue sheets werden nicht unterstützt.

Mystique
28.12.2005, 20:14
*OMG* Auf so eine Idee bin ich ja nochnie gekommen und kenne auch keinen der das gemacht hat, finde ich irgendwie goil ^^