Showing results 1 to 3 of 3

Thread: Problem with loading Audio CUE-File

  1. #1

    Default Problem with loading Audio CUE-File

    Hi,
    maybe I made something wrong, I can't load the cue file in daemon, please have a look at my cue-file... thanks
    (it works with nero-burning
    Code:
    REM DATE 1999
    REM DISCID d311530d
    REM COMMENT Kopithek CDDB generated
    PERFORMER "VARIOUS"
    TITLE "FULL RANGE"
    FILE "LIVE - Graze # (The-Impact-Fx-Remix) [1999#01].AIF" AIFF
      TRACK 01 AUDIO
        PERFORMER "LIVE"
        TITLE "Graze # (The-Impact-Fx-Remix)"
        PREGAP 00:00:00
        INDEX 01 00:00:00
    FILE "VERVE, THE - Lucky Man # (The-1-2-Final-Remix) [1999#02].AIF" AIFF
      TRACK 02 AUDIO
        PERFORMER "VERVE, THE"
        TITLE "Lucky Man # (The-1:2-Final-Remix)"
        INDEX 01 00:00:00
    FILE "CARTER THE UNSTOPPABLE SEX MACHINE - Johnny Cash # (The-Soft-Rain-Remix) [1999#03].AIF" AIFF
      TRACK 03 AUDIO
        PERFORMER "CARTER THE UNSTOPPABLE SEX MACHINE"
        TITLE "Johnny Cash # (The-Soft-Rain-Remix)"
        INDEX 01 00:00:00
    FILE "GARBAGE - #1 Crush # (The-Hard-Pain-Remix) [1999#04].AIF" AIFF
      TRACK 04 AUDIO
        PERFORMER "GARBAGE"
        TITLE "#1 Crush # (The-Hard-Pain-Remix)"
        INDEX 01 00:00:00
    FILE "WHALE - Go Where You're Feeling Free # (The-Ocean-Wave-Remix) [1999#05].AIF" AIFF
      TRACK 05 AUDIO
        PERFORMER "WHALE"
        TITLE "Go Where You're Feeling Free # (The-Ocean-Wave-Remix)"
        INDEX 01 00:00:00
    FILE "RADIOHEAD - Exit Music (For A Film) # (The-Rhythm-Train-Remix) [1999#06].AIF" AIFF
      TRACK 06 AUDIO
        PERFORMER "RADIOHEAD"
        TITLE "Exit Music (For A Film) # (The-Rhythm-Train-Remix)"
        INDEX 01 00:00:00
    FILE "PAVEMENT - Transport Is Arranged # (The-Fire-Escape-Remix) [1999#07].AIF" AIFF
      TRACK 07 AUDIO
        PERFORMER "PAVEMENT"
        TITLE "Transport Is Arranged # (The-Fire-Escape-Remix)"
        INDEX 01 00:00:00
    FILE "SMASHING PUMPKINS - Crestfallen # (The-Under-Water-Remix) [1999#08].AIF" AIFF
      TRACK 08 AUDIO
        PERFORMER "SMASHING PUMPKINS"
        TITLE "Crestfallen # (The-Under-Water-Remix)"
        INDEX 01 00:00:00
    FILE "MARCY PLAYGROUND - Sex And Candy # (The-Taking-Off-Remix) [1999#09].AIF" AIFF
      TRACK 09 AUDIO
        PERFORMER "MARCY PLAYGROUND"
        TITLE "Sex And Candy # (The-Taking-Off-Remix)"
        INDEX 01 00:00:00
    FILE "HARVEY, PJ - The River # (The-Full-Moon-Remix) [1999#10].AIF" AIFF
      TRACK 10 AUDIO
        PERFORMER "HARVEY, PJ"
        TITLE "The River # (The-Full-Moon-Remix)"
        INDEX 01 00:00:00
    FILE "BUTTHOLE SURFERS - Whatever # (The-Nightmare-Remix) [1999#11].AIF" AIFF
      TRACK 11 AUDIO
        PERFORMER "BUTTHOLE SURFERS"
        TITLE "Whatever # (The-Nightmare-Remix)"
        INDEX 01 00:00:00
    FILE "PULP - This Is Hardcore # (The-Fast-Motion-Remix) [1999#12].AIF" AIFF
      TRACK 12 AUDIO
        PERFORMER "PULP"
        TITLE "This Is Hardcore # (The-Fast-Motion-Remix)"
        INDEX 01 00:00:00
    FILE "BIF NAKED - Lucky # (The-Wide-Desert-Remix) [1999#13].AIF" AIFF
      TRACK 13 AUDIO
        PERFORMER "BIF NAKED"
        TITLE "Lucky # (The-Wide-Desert-Remix)"
        INDEX 01 00:00:00

  2. #2
    Master
    Jito463's Avatar
    Join Date
    24.05.2005
    Posts
    1,626

    Default

    Looks like you're a CUE file with several AIF files. This will not work. DTools will work with CUE/BIN image files, but not CUE/AIF, CUE/MP3, etc.

  3. #3

    Default

    Thanks for the comment!
    Does' anybody know, why aif-files are not supported ? Or if there's a chance for support in next daemon-tools version ??
    [Meanwhile I tested and converted all aif to wav-files, and of course changed the cue-file accordingly - and DTools loaded the cue-file correct as an audio-cd]
    As aif-files are taggable (under iTunes, even cover embedding) this will be my preferred audio-file format instead of wav in the future.
    Any chance to enable aif-support in cue-files ?

Bookmarks

Posting Rules

  • You may not post new threads
  • You may not post replies
  • You may not post attachments
  • You may not edit your posts
  •