Page 1 of 2 12 LastLast
Showing results 1 to 10 of 19

Thread: Problem with .cue mounting.

  1. #1
    New User

    Join Date
    29.07.2007
    Posts
    8

    Pfeil Problem with .cue mounting.

    Hello ! Happy new year !
    "Unable to mount image. No access to file image." - this message occur when I try to mount music .cue image file ...
    What to do ?

    Thanx.

  2. #2
    GERMAN TRANSLATOR
    Blazkowicz's Avatar
    Join Date
    09.11.2005
    Posts
    6,401

    Default

    Please post content of cue file.

    Also your DT version is?
    Make something idiot proof, but then they just make a better idiot
    Peace Through Power

  3. #3
    New User

    Join Date
    29.07.2007
    Posts
    8

    Cool

    Quote Originally Posted by Blazkowicz View Post
    Please post content of cue file.

    Also your DT version is?
    RapidShare: 1-CLICK Web hosting - Easy Filehosting

    REM GENRE Pop
    REM DATE 1994
    REM DISCID 710B070A
    REM COMMENT "ExactAudioCopy v0.99pb4"
    PERFORMER "гр.КАР-МЭН"
    TITLE "Вокруг Света"
    FILE "гр.КАР-МЭН - Вокруг Света.wav" WAVE
    TRACK 01 AUDIO
    TITLE "Чио-Чио-Сан"
    PERFORMER "гр.КАР-МЭН"
    INDEX 01 00:00:00
    TRACK 02 AUDIO
    TITLE "Эй, ухнем"
    PERFORMER "гр.КАР-МЭН"
    INDEX 01 05:00:47
    TRACK 03 AUDIO
    TITLE "Дели"
    PERFORMER "гр.КАР-МЭН"
    INDEX 01 09:21:07
    TRACK 04 AUDIO
    TITLE "Знойный Истамбул"
    PERFORMER "гр.КАР-МЭН"
    INDEX 01 14:20:30
    TRACK 05 AUDIO
    TITLE "Париж"
    PERFORMER "гр.КАР-МЭН"
    INDEX 01 18:18:35
    TRACK 06 AUDIO
    TITLE "Прощай, Лондон"
    PERFORMER "гр.КАР-МЭН"
    INDEX 01 23:12:45
    TRACK 07 AUDIO
    TITLE "Отель Сан-Мартино"
    PERFORMER "гр.КАР-МЭН"
    INDEX 01 28:41:25
    TRACK 08 AUDIO
    TITLE "Орлеанский рок-н-ролл"
    PERFORMER "гр.КАР-МЭН"
    INDEX 01 34:09:55
    TRACK 09 AUDIO
    TITLE "Моя девчонка из Америки"
    PERFORMER "гр.КАР-МЭН"
    INDEX 01 38:10:30
    TRACK 10 AUDIO
    TITLE "Багама-Мама"
    PERFORMER "гр.КАР-МЭН"
    INDEX 01 43:13:62

    DT Latest 4.35.0308.0131
    Last edited by mikhai : 07.01.2010 at 09:01

  4. #4
    GERMAN TRANSLATOR
    Blazkowicz's Avatar
    Join Date
    09.11.2005
    Posts
    6,401

    Default

    гр.КАР-МЭН - Вокруг Света.wav file actually exists next to cue file?
    Make something idiot proof, but then they just make a better idiot
    Peace Through Power

  5. #5
    New User

    Join Date
    29.07.2007
    Posts
    8

    Pfeil

    Quote Originally Posted by Blazkowicz View Post
    гр.КАР-МЭН - Вокруг Света.wav file actually exists next to cue file?
    No only .ape

  6. #6
    GERMAN TRANSLATOR
    Blazkowicz's Avatar
    Join Date
    09.11.2005
    Posts
    6,401

    Default

    That's your problem. It tries to mount the wav file and if it is not there, it can't.

    But, how did you create that image anyway?
    Make something idiot proof, but then they just make a better idiot
    Peace Through Power

  7. #7
    New User

    Join Date
    29.07.2007
    Posts
    8

    Pfeil

    Quote Originally Posted by Blazkowicz View Post
    That's your problem. It tries to mount the wav file and if it is not there, it can't.

    But, how did you create that image anyway?
    REM COMMENT "ExactAudioCopy v0.99pb4" - seems to me it's clear =)

  8. #8
    GERMAN TRANSLATOR
    Blazkowicz's Avatar
    Join Date
    09.11.2005
    Posts
    6,401

    Default

    I meant the exact way in EAC.
    Make something idiot proof, but then they just make a better idiot
    Peace Through Power

  9. #9
    Master

    Sway's Avatar
    Join Date
    09.07.2009
    Posts
    1,966

    Default

    DAEMON Tools doesn't support APE/CUE files. It is not an image format. It's a lossless audio format - http://en.wikipedia.org/wiki/Monkey's_Audio.

  10. #10
    New User

    Join Date
    29.07.2007
    Posts
    8

    Pfeil

    Quote Originally Posted by Sway View Post
    DAEMON Tools doesn't support APE/CUE files. It is not an image format. It's a lossless audio format - Monkey's Audio - Wikipedia, the free encyclopedia.
    Very interesting, may be it's just seems only to me .... =)

    See attach.
    Attached Thumbnails Attached Thumbnails Click image for larger version

Name:	DT.JPG
Views:	659
Size:	84.3 KB
ID:	848  
    Last edited by mikhai : 08.01.2010 at 11:24

Page 1 of 2 12 LastLast

Bookmarks

Posting Rules

  • You may not post new threads
  • You may not post replies
  • You may not post attachments
  • You may not edit your posts
  •