Showing results 1 to 8 of 8

Thread: Unable to mount image. Cue sheet: line 4 - File not accessable.

  1. #1
    New User
    Join Date
    05.01.2010
    Posts
    6

    Default Unable to mount image. Cue sheet: line 4 - File not accessable.

    hello guys ! First off thanks for your time, i tried to work this out myself for about a week now my last resort was to post on the forum. everytime i try to mount a Dreamcast " image " .cue this shows...>>>Unable to mount image. Cue sheet: line 4 - File not accessable. <<<< can som1 explain to me what it is and how i can over come this problem ? im trying to mount a DreamCast game soo it works on my emulator.


    if u guys need more info on the issue i would gladly post but any info that u guys provide would be MAJORLY appreciated coz im losing it ! thanks in advance. hope u all had a good xmas.

  2. #2
    GERMAN TRANSLATOR
    Blazkowicz's Avatar
    Join Date
    09.11.2005
    Posts
    6,401

    Default

    Please post file names of cue and bin and content of cue file.
    Make something idiot proof, but then they just make a better idiot
    Peace Through Power

  3. #3
    New User
    Join Date
    05.01.2010
    Posts
    6

    Default

    KAL-TXR KAL-TXR
    BIN File CUE File

    What do u mean by ' CONTENT OF CUE FILE ' ?
    Last edited by Blazkowicz : 06.01.2010 at 11:29

  4. #4
    GERMAN TRANSLATOR
    Blazkowicz's Avatar
    Join Date
    09.11.2005
    Posts
    6,401

    Default

    Well, you open the cue file with e. g. notepad and post the content.
    Make something idiot proof, but then they just make a better idiot
    Peace Through Power

  5. #5
    New User
    Join Date
    05.01.2010
    Posts
    6

    Default

    hey 1st of i just wana thank u for ur time..

    umm i opened the .CUE in note pad n this came up



    FILE "KAL-TXR.BIN" BINARY
    TRACK 01 MODE1/2352
    INDEX 01 00:00:00
    FILE "track_02.wav" WAVE
    TRACK 02 AUDIO
    INDEX 01 00:00:00
    FILE "track_03.wav" WAVE
    TRACK 03 AUDIO
    INDEX 01 00:00:00
    FILE "track_04.wav" WAVE
    TRACK 04 AUDIO
    INDEX 01 00:00:00
    FILE "track_05.wav" WAVE
    TRACK 05 AUDIO
    INDEX 01 00:00:00
    FILE "track_06.wav" WAVE
    TRACK 06 AUDIO
    INDEX 01 00:00:00
    FILE "track_07.wav" WAVE
    TRACK 07 AUDIO
    INDEX 01 00:00:00
    FILE "track_08.wav" WAVE
    TRACK 08 AUDIO
    INDEX 01 00:00:00
    FILE "track_09.wav" WAVE
    TRACK 09 AUDIO
    INDEX 01 00:00:00
    FILE "track_10.wav" WAVE
    TRACK 10 AUDIO
    INDEX 01 00:00:00
    FILE "track_11.wav" WAVE
    TRACK 11 AUDIO
    INDEX 01 00:00:00
    FILE "track_12.wav" WAVE
    TRACK 12 AUDIO
    INDEX 01 00:00:00
    FILE "track_13.wav" WAVE
    TRACK 13 AUDIO
    INDEX 01 00:00:00
    FILE "track_14.wav" WAVE
    TRACK 14 AUDIO
    INDEX 01 00:00:00
    FILE "track_15.wav" WAVE
    TRACK 15 AUDIO
    INDEX 01 00:00:00
    FILE "track_16.wav" WAVE
    TRACK 16 AUDIO
    INDEX 01 00:00:00
    FILE "track_17.wav" WAVE
    TRACK 17 AUDIO
    INDEX 01 00:00:00
    FILE "track_18.wav" WAVE
    TRACK 18 AUDIO
    INDEX 01 00:00:00
    FILE "track_19.wav" WAVE
    TRACK 19 AUDIO
    INDEX 01 00:00:00
    FILE "track_20.wav" WAVE
    TRACK 20 AUDIO
    INDEX 01 00:00:00


    is that what u wer asking for ?

  6. #6
    GERMAN TRANSLATOR
    Blazkowicz's Avatar
    Join Date
    09.11.2005
    Posts
    6,401

    Default

    You actually have the wav files in same folder?
    Make something idiot proof, but then they just make a better idiot
    Peace Through Power

  7. #7
    New User
    Join Date
    05.01.2010
    Posts
    6

    Default

    yeah it looks like its in the right order? but why doesnt it get mounted ? what does this all mean ?

  8. #8
    Customer Terramex's Avatar
    Join Date
    06.09.2004
    Posts
    2,566

    Default

    @ohalan
    How have you created that image ?
    I'm not employed by Disc Soft and my views do not necessarily reflect the ones of the company.

Bookmarks

Posting Rules

  • You may not post new threads
  • You may not post replies
  • You may not post attachments
  • You may not edit your posts
  •