Showing results 1 to 4 of 4

Thread: Error mounting mp3 disks

  1. #1

    Default Error mounting mp3 disks

    Daemon tools does not wish to mount audio disks for some reason

    when I try to mount the following cue sheet I get an error : "unknown file type"

    Why can't deamon tools mount this cue sheet? When I record it with Nero, I get a normal CD.

    PERFORMER "VA"
    TITLE "In Trance We Trust 008 - Mixed By Ton TB-CD"
    FILE "01-va-in_trance_we_trust_008-mixed_by_ton_tb-cd-2003-mim.mp3" MP3
    TRACK 01 AUDIO
    TITLE "009"
    PERFORMER "Circulation"
    INDEX 00 00:00:00
    INDEX 01 00:00:29
    TRACK 02 AUDIO
    TITLE "Traffic (Original Mix)"
    PERFORMER "Joker Jam"
    INDEX 01 05:56:26
    TRACK 03 AUDIO
    TITLE "Atlantic Breeze"
    PERFORMER "Floor Divisions"
    INDEX 01 13:07:59
    TRACK 04 AUDIO
    TITLE "Under Control (San Project Remix)"
    PERFORMER "Coda"
    INDEX 01 18:26:23
    TRACK 05 AUDIO
    TITLE "Push (Push Cover Version)"
    PERFORMER "Atropin Project"
    INDEX 01 22:24:04
    TRACK 06 AUDIO
    TITLE "Air Traffic"
    PERFORMER "Three Drives"
    INDEX 01 27:45:57
    TRACK 07 AUDIO
    TITLE "Heavens Gate (DJ Danjo & Rob Styles Remix)"
    PERFORMER "Jas van Houten"
    INDEX 01 36:42:66
    TRACK 08 AUDIO
    TITLE "Friends (Vampires On Mars Remix)"
    PERFORMER "Tillmann Uhrmacher"
    INDEX 01 40:41:08
    TRACK 09 AUDIO
    TITLE "Silent Witness"
    PERFORMER "Ton T.B."
    INDEX 01 45:46:09
    TRACK 10 AUDIO
    TITLE "Pearl (Darren Christian Remix)"
    PERFORMER "Midtone"
    INDEX 01 52:47:69
    TRACK 11 AUDIO
    TITLE "Next Victim"
    PERFORMER "Tangled Universe"
    INDEX 01 56:16:71
    TRACK 12 AUDIO
    TITLE "Bad Magic"
    PERFORMER "Tyrome"
    INDEX 01 62:33:02
    TRACK 13 AUDIO
    TITLE "Venus (Meant To Be Your Lover) (DJ Tiлsto Remix)"
    PERFORMER "Cor Fijneman Featuring Jan Johnston"
    INDEX 01 65:20:12
    TRACK 14 AUDIO
    TITLE "Chaos Engine"
    PERFORMER "The Traveller Presents Quest"
    INDEX 01 70:40:44
    TRACK 15 AUDIO
    TITLE "What's Wrong"
    PERFORMER "Harry Diamond & David Pannell Present Ca-Lo"
    INDEX 01 75:05:20


    This is also true for other audio images I have.... Please fix this

  2. #2

    Default

    It has been stated many times that mp3 discs will not be supported.

    Why would you want to mount an mp3 disc anyhow? Could you not simply play the mp3?

  3. #3
    Administrator



    Join Date
    06.11.2002
    Posts
    2,044

    Default

    Images using any compression are currently not supported.

  4. #4

    Default

    The mp3 file is just one continious track.... mounting it would separate it into different songs...

    It's a pitty that you guys can't think of a way to do this, it would be nice

    I Love Daemon tools btw

Bookmarks

Posting Rules

  • You may not post new threads
  • You may not post replies
  • You may not post attachments
  • You may not edit your posts
  •