Showing results 1 to 2 of 2

Thread: help needed burning .cue files for .mp3 files!!

  1. #1

    Default help needed burning .cue files for .mp3 files!!

    I have cue files that have the following structure

    TITLE "Clubbers Guide 2003 CD1"
    FILE "Clubbers Guide 2003 CD1.mp3" MP3
    TRACK 01 AUDIO
    TITLE "Divine Inspiration - The Way (Svenson & Gielen Remix)"
    INDEX 01 00:00:00
    TRACK 02 AUDIO
    TITLE "Flip & Fill - I Wanna Dance With Somebody (Resource Mix)"
    INDEX 01 03:50:45
    TRACK 03 AUDIO
    TITLE "DJ Sammy & Yanou Feat. Do - Heaven"
    INDEX 01 08:42:52
    TRACK 04 AUDIO
    TITLE "Dee Dee - The One (4 Clubbers Remix)"
    INDEX 01 12:56:40
    TRACK 05 AUDIO
    TITLE "Lucy Carr - Missing You (Kenny Hayes Remix)"
    INDEX 01 17:20:52


    The files they corespond to are .mp3 files as you can see but I have been unable to burn cd's using these .cue files!!

    I'v tried Nero (It crashes);
    INSERT INTO `portal_posts_text` VALUES
    Roxio easy cd creator[GASP!] (it throws an error)

    and tried loading them into daemon tools but that says there is an error at line 2, unknow file type!!

    Can anyone shed a bit of light on how i can burn these files to cd!

    Thanks in advance SpLenDid :wink:

  2. #2

    Default

    bin/cue-images are usually from CDRWin.
    Everybody be cool! You, be cool!
    They'll keep fighting! And they'll win!

Bookmarks

Posting Rules

  • You may not post new threads
  • You may not post replies
  • You may not post attachments
  • You may not edit your posts
  •