Showing results 1 to 5 of 5

Thread: Karaoke VCD mount problem

  1. #1

    Default Karaoke VCD mount problem

    Trying to mount a .bin/.cue file image taken of a karaoke VCD.

    Tools version is 4.03HE under win32xp.

    When mounting the .cue file, an error appears with "Unable to mount image. Invalid track type".

    The .cue and .bin are in the same folder. The .cue file is pasted below.

    Any clues please from kind souls out there ?

    Many thanks.

    FILE "uk7.bin" BINARY
    TRACK 01 MODE1/2448
    INDEX 01 00:00:00
    TRACK 02 MODE1/2448
    INDEX 00 00:05:22
    INDEX 01 00:07:22
    TRACK 03 MODE1/2448
    INDEX 00 02:58:17
    INDEX 01 03:00:17
    TRACK 04 MODE1/2448
    INDEX 00 05:45:30
    INDEX 01 05:47:30
    TRACK 05 MODE1/2448
    INDEX 00 07:12:06
    INDEX 01 07:14:06
    TRACK 06 MODE1/2448
    INDEX 00 10:01:05
    INDEX 01 10:03:05
    TRACK 07 MODE1/2448
    INDEX 00 12:46:03
    INDEX 01 12:48:03
    TRACK 08 MODE1/2448
    INDEX 00 16:07:34
    INDEX 01 16:09:34
    TRACK 09 MODE1/2448
    INDEX 00 17:29:16
    INDEX 01 17:31:16
    TRACK 10 MODE1/2448
    INDEX 00 21:26:58
    INDEX 01 21:28:58
    TRACK 11 MODE1/2448
    INDEX 00 23:49:07
    INDEX 01 23:51:07
    TRACK 12 MODE1/2448
    INDEX 00 26:28:04
    INDEX 01 26:30:04
    TRACK 13 MODE1/2448
    INDEX 00 28:57:04
    INDEX 01 28:59:04
    TRACK 14 MODE1/2448
    INDEX 00 32:45:62
    INDEX 01 32:47:62

  2. #2

    Default

    How did you create the image, wich program and settings?

  3. #3

    Default

    Image obtained with Roxio Easy Media Creator v7 using the "Audio CD copy" utility.

    Is this the wrong way to go ?

    What better VCD image file saving programs are there out there ?

    Many thanks for the help

  4. #4

    Default

    Make a new image with Alcohol 120%, you can get a trial-version from there site.

  5. #5
    Experienced User
    Kinlaadare's Avatar
    Join Date
    24.05.2005
    Posts
    697

    Default

    Or use the free Alcohol 52% version.
    Carpe diem

Bookmarks

Posting Rules

  • You may not post new threads
  • You may not post replies
  • You may not post attachments
  • You may not edit your posts
  •